website statistics
Love And Monsters (2020) 초고화질 h264 Ac3 5.1 Ita Eng Sub Ita Eng-M... > 영화 > 인터넷의 시작 더토렌트
홈 > 영화 > 영화
영화
 [구글검색] 구글에서 더토렌트 검색 - 구글에서 토렌트를 검색하실 때에 검색어 뒤에 더토렌트를 꼭 붙여서 검색하세요.     더토렌트에서 광고중인 웹에 문제가 있다면 상단에 나와 있는 운영자 이메일로 연락 주십시오.     사용자님의 다운로드가 완료될 때까지 저희가 함께하겠습니다. 편안하고 즐거운 시간 되십시오.

웹하드 찐플

  

  

Love And Monsters (2020) 초고화질 h264 Ac3 5.1 Ita Eng Sub Ita Eng-M...

/img/filemong_rocket.gif
『Love And Monsters (2020) 초고화질 h264 Ac3 5.1 Ita Eng Sub Ita Eng-M...』 국내 우량 기업에서 운영하는 무료 파일보고에서 검색해 보세요. 토렌트를 사랑하시는 분이라면 파일보고도 틀림없이 좋아하실 겁니다. 토렌트에 없는 자료라면 파일보고에는 반드시 있습니다. 업로더들의 경쟁으로 높은 품질의 자료를 양껏 제공하고 있습니다. 드라마 한편을 15초 안에 다운로드 받으세요. 게다가 파일보고에서는 단 5분 안에 상상을 초월하는 자료 업로드량을 제공합니다. 파일보고는 대한민국 최고의 웹하드입니다. 방대한 자료량과 높은 품질의 자료 퀄리티를 제공하며, 빠른 다운로드 속도, 빠른 업데이트 속도로 사용자님을 모시고 있습니다. 6기가 완전 무료!!
banner-fine-nuovo-500x-PROVA1.png
NO FOUND ONLY ORIGINAL RELEASE


My release is always in double track audio italian and Original audio
for select it use VLC or dvd player home
not use wmp

Love And Monsters (2020)

Quality MIRCrew on HD 초고화질 da 2,6 gb







mn57cnpqig5g4q2oijj.png  

Genere: Avventura , Commedia , Fantascienza
Anno: 2020
Regia: Michael Matthews
Paese: Canada, USA
Durata: 109 Min
Distribuzione: Netflix, Eagle Pictures / Paramount Pictures Italia
Sceneggiatura: Matthew Robinson
Fotografia: Lachlan Milne
Montaggio: Nancy Richardson

tezwu74hy2ea52fcogj2.png

Dylan OBrien, Jessica Henwick, Michael Rooker, Dan Ewing, Ariana Greenblatt, Ellen Hollman, Tre Hale, Pacharo Mzembe, Senie Priti, Amali Golden, Te Kohe Tuhaka, Tasneem Roc, Joel Pierce, Melanie Zanetti, Bruce Spence, Hazel Phillips, Miriama Smith, Andrew Buchanan, Tandi Wright, Damien Garvey, Julia Johnson, Ariu Lang Sio, Donnie Baxter

7nliitglybyed4h2s9hg.png

La Terra e lumanità sono sconvolte da una pioggia di meteoriti che causa la mutazione di tutte le creature a sangue freddo facendole diventare gigantesche. Dopo sette anni trascorsi in un rifugio sotterraneo Joe decide di mettersi alla ricerca della sua fidanzata, Aimee, da cui è rimasto separato durante quella fatidica notte di sette anni prima..

zikr616teyyksh11mc.png

In a monster-infested world, Joel learns his girlfriend is just 85 miles away. To make the dangerous journey, Joel discovers his inner hero to be with the girl of his dreams.

2duciykqws1elqyaib8c.png  

















4a2jnqtcmuftgydzspa.png


General

Complete name                            : Love And Monsters (2020) 초고화질 h264 Ac3 5.1 Ita Eng Sub Ita Eng-MIRCrew\Love And Monsters (2020) 초고화질 h264 Ac3 5.1 Ita Eng Sub Ita Eng-MIRCrew.mkv
Format                                   : Matroska
Format version                           : Version 2
File size                                : 2.64 GiB
Duration                                 : 1h 49mn
Overall bit rate                         : 3 445 Kbps
Movie name                               : MIRCrew
Encoded date                             : UTC 2021-04-14 07:26:00
Writing application                      : mkvmerge v5.8.0 (No Sleep / Pillow) built on Sep  2 2012 15:37:04
Writing library                          : Lavf54.63.100
COMMENT                                  : MIRCrew

Video
ID                                       : 1
Format                                   : AVC
Format/Info                              : Advanced Video Codec
Format profile                           : [email protected]
Format settings, CABAC                   : Yes
Format settings, ReFrames                : 2 frames
Codec ID                                 : V_MPEG4/ISO/AVC
Duration                                 : 1h 49mn
Bit rate                                 : 2 600 Kbps
Width                                    : 1 920 pixels
Height                                   : 800 pixels
Display aspect ratio                     : 2.40:1
Frame rate mode                          : Variable
Frame rate                               : 23.976 fps
Color space                              : YUV
Chroma subsampling                       : 4:2:0
Bit depth                                : 8 bits
Scan type                                : Progressive
Bits/(Pixel*Frame)                       : 0.071
Stream size                              : 1.90 GiB (72%)
Title                                    : MIRCrew
Writing library                          : x264 core 130 r2273
Encoding settings                        : cabac=1 / ref=2 / deblock=1:-1:-1
Language                                 : Italian
Default                                  : Yes
Forced                                   : No
DURATION                                 : 01:48:51.859000000
NUMBER_OF_FRAMES                         : 156608

Audio #1
ID                                       : 2
Format                                   : AC-3
Format/Info                              : Audio Coding 3
Mode extension                           : CM (complete main)
Codec ID                                 : A_AC3
Duration                                 : 1h 49mn
Bit rate mode                            : Constant
Bit rate                                 : 448 Kbps
Channel(s)                               : 6 channels
Channel positions                        : Front: L C R, Side: L R, LFE
Sampling rate                            : 48.0 KHz
Bit depth                                : 16 bits
Compression mode                         : Lossy
Delay relative to video                  : -5ms
Stream size                              : 351 MiB (13%)
Title                                    : Ita Ac3 5.1
Language                                 : Italian
Default                                  : Yes
Forced                                   : No
DURATION                                 : 01:49:37.696000000


Audio #2
ID                                       : 3
Format                                   : AC-3
Format/Info                              : Audio Coding 3
Mode extension                           : CM (complete main)
Codec ID                                 : A_AC3
Duration                                 : 1h 49mn
Bit rate mode                            : Constant
Bit rate                                 : 448 Kbps
Channel(s)                               : 6 channels
Channel positions                        : Front: L C R, Side: L R, LFE
Sampling rate                            : 48.0 KHz
Bit depth                                : 16 bits
Compression mode                         : Lossy
Delay relative to video                  : -5ms
Stream size                              : 351 MiB (13%)
Title                                    : Eng Ac3 5.1
Language                                 : English
Default                                  : No
Forced                                   : No
DURATION                                 : 01:48:51.904000000

Menu
00:00:00.000                             : :Chapter 01
00:10:19.369                             : :Chapter 02
00:20:14.505                             : :Chapter 03
00:28:48.644                             : :Chapter 04
00:34:54.968                             : :Chapter 05
00:41:15.515                             : :Chapter 06
00:50:20.976                             : :Chapter 07
00:54:56.460                             : :Chapter 08
01:04:05.717                             : :Chapter 09
01:13:02.670                             : :Chapter 10
01:20:52.473                             : :Chapter 11
01:27:57.105                             : :Chapter 12
01:36:45.466                             : :Chapter 13
01:42:38.527                             : :Chapter 14




nU43TBc.gif

Love And Monsters (2020) 초고화질 h264 Ac3 5.1 Ita Eng Sub Ita Eng-MIRCrew

banner-fine-nuovo-500x-PROVA1.png
NO FOUND ONLY ORIGINAL RELEASE


My release is always in double track audio italian and Original audio
for select it use VLC or dvd player home
not use wmp

Love And Monsters (2020)

Quality MIRCrew on HD 초고화질 da 2,6 gb







mn57cnpqig5g4q2oijj.png  

Genere: Avventura , Commedia , Fantascienza
Anno: 2020
Regia: Michael Matthews
Paese: Canada, USA
Durata: 109 Min
Distribuzione: Netflix, Eagle Pictures / Paramount Pictures Italia
Sceneggiatura: Matthew Robinson
Fotografia: Lachlan Milne
Montaggio: Nancy Richardson

tezwu74hy2ea52fcogj2.png

Dylan OBrien, Jessica Henwick, Michael Rooker, Dan Ewing, Ariana Greenblatt, Ellen Hollman, Tre Hale, Pacharo Mzembe, Senie Priti, Amali Golden, Te Kohe Tuhaka, Tasneem Roc, Joel Pierce, Melanie Zanetti, Bruce Spence, Hazel Phillips, Miriama Smith, Andrew Buchanan, Tandi Wright, Damien Garvey, Julia Johnson, Ariu Lang Sio, Donnie Baxter

7nliitglybyed4h2s9hg.png

La Terra e lumanità sono sconvolte da una pioggia di meteoriti che causa la mutazione di tutte le creature a sangue freddo facendole diventare gigantesche. Dopo sette anni trascorsi in un rifugio sotterraneo Joe decide di mettersi alla ricerca della sua fidanzata, Aimee, da cui è rimasto separato durante quella fatidica notte di sette anni prima..

zikr616teyyksh11mc.png

In a monster-infested world, Joel learns his girlfriend is just 85 miles away. To make the dangerous journey, Joel discovers his inner hero to be with the girl of his dreams.

2duciykqws1elqyaib8c.png  

















4a2jnqtcmuftgydzspa.png


General

Complete name                            : Love And Monsters (2020) 초고화질 h264 Ac3 5.1 Ita Eng Sub Ita Eng-MIRCrew\Love And Monsters (2020) 초고화질 h264 Ac3 5.1 Ita Eng Sub Ita Eng-MIRCrew.mkv
Format                                   : Matroska
Format version                           : Version 2
File size                                : 2.64 GiB
Duration                                 : 1h 49mn
Overall bit rate                         : 3 445 Kbps
Movie name                               : MIRCrew
Encoded date                             : UTC 2021-04-14 07:26:00
Writing application                      : mkvmerge v5.8.0 (No Sleep / Pillow) built on Sep  2 2012 15:37:04
Writing library                          : Lavf54.63.100
COMMENT                                  : MIRCrew

Video
ID                                       : 1
Format                                   : AVC
Format/Info                              : Advanced Video Codec
Format profile                           : [email protected]
Format settings, CABAC                   : Yes
Format settings, ReFrames                : 2 frames
Codec ID                                 : V_MPEG4/ISO/AVC
Duration                                 : 1h 49mn
Bit rate                                 : 2 600 Kbps
Width                                    : 1 920 pixels
Height                                   : 800 pixels
Display aspect ratio                     : 2.40:1
Frame rate mode                          : Variable
Frame rate                               : 23.976 fps
Color space                              : YUV
Chroma subsampling                       : 4:2:0
Bit depth                                : 8 bits
Scan type                                : Progressive
Bits/(Pixel*Frame)                       : 0.071
Stream size                              : 1.90 GiB (72%)
Title                                    : MIRCrew
Writing library                          : x264 core 130 r2273
Encoding settings                        : cabac=1 / ref=2 / deblock=1:-1:-1
Language                                 : Italian
Default                                  : Yes
Forced                                   : No
DURATION                                 : 01:48:51.859000000
NUMBER_OF_FRAMES                         : 156608

Audio #1
ID                                       : 2
Format                                   : AC-3
Format/Info                              : Audio Coding 3
Mode extension                           : CM (complete main)
Codec ID                                 : A_AC3
Duration                                 : 1h 49mn
Bit rate mode                            : Constant
Bit rate                                 : 448 Kbps
Channel(s)                               : 6 channels
Channel positions                        : Front: L C R, Side: L R, LFE
Sampling rate                            : 48.0 KHz
Bit depth                                : 16 bits
Compression mode                         : Lossy
Delay relative to video                  : -5ms
Stream size                              : 351 MiB (13%)
Title                                    : Ita Ac3 5.1
Language                                 : Italian
Default                                  : Yes
Forced                                   : No
DURATION                                 : 01:49:37.696000000


Audio #2
ID                                       : 3
Format                                   : AC-3
Format/Info                              : Audio Coding 3
Mode extension                           : CM (complete main)
Codec ID                                 : A_AC3
Duration                                 : 1h 49mn
Bit rate mode                            : Constant
Bit rate                                 : 448 Kbps
Channel(s)                               : 6 channels
Channel positions                        : Front: L C R, Side: L R, LFE
Sampling rate                            : 48.0 KHz
Bit depth                                : 16 bits
Compression mode                         : Lossy
Delay relative to video                  : -5ms
Stream size                              : 351 MiB (13%)
Title                                    : Eng Ac3 5.1
Language                                 : English
Default                                  : No
Forced                                   : No
DURATION                                 : 01:48:51.904000000

Menu
00:00:00.000                             : :Chapter 01
00:10:19.369                             : :Chapter 02
00:20:14.505                             : :Chapter 03
00:28:48.644                             : :Chapter 04
00:34:54.968                             : :Chapter 05
00:41:15.515                             : :Chapter 06
00:50:20.976                             : :Chapter 07
00:54:56.460                             : :Chapter 08
01:04:05.717                             : :Chapter 09
01:13:02.670                             : :Chapter 10
01:20:52.473                             : :Chapter 11
01:27:57.105                             : :Chapter 12
01:36:45.466                             : :Chapter 13
01:42:38.527                             : :Chapter 14




nU43TBc.gif

Love And Monsters (2020) 초고화질 h264 Ac3 5.1 Ita Eng Sub Ita Eng-M...

번역하기: 한국 한국어


<< 이 게시판에서 관련된 자료 목록 >>
 [구글검색] 구글에서 더토렌트 검색 - 구글에서 토렌트를 검색하실 때에 검색어 뒤에 더토렌트를 꼭 붙여서 검색하세요.     더토렌트에서 광고중인 웹에 문제가 있다면 상단에 나와 있는 운영자 이메일로 연락 주십시오.     사용자님의 다운로드가 완료될 때까지 저희가 함께하겠습니다. 편안하고 즐거운 시간 되십시오.

웹하드 파일썬

  

  

현재 인기있는 자료


영화 인기글


인기 검색어


실시간 검색어


오늘의 인기글


새댓글


Facebook Twitter GooglePlus KakaoStory NaverBand